免費論壇 繁體 | 簡體
公告:SCLUB雲端專屬主機己開放租用
分享
返回列表 發帖

【ape】 詹雅雯《當店》

《當店》

多少人年輕時拿時間、健康、快樂和自由來換取金錢,
年老時,才又想以金錢來贖回這一切。
贖得回來嗎?

詹雅雯《當店》
搭配三立電視台/ 阿爸的願望-片尾曲
曲目:
  1.  當店  
  2.  一個人  
  3.  感情!我講會到做會到  
  4.  墓仔埔也敢來  
  5.  不免想我  
  6.  傷痕纍纍  
  7.  冷情淚  
  8.  幸福的名單  
  9.  半暝兩點  
  10.  思念追袂返來
照片.jpg
2013-4-10 21:44
照片 002.jpg
2013-4-10 21:44
照片 001.jpg
2013-4-10 21:44

本帖隱藏的內容需要回復才可以瀏覽

收費附件: 当店mm.rar
Exact Audio Copy V0.99 prebeta 5 from 4. May 2009
EAC 抓取日志文件从21. 三月 2013, 17:46
詹雅雯 / 詹雅雯《當店》
使用驱动器  :ATAPI   iHAS524   B   Adapter: 2  ID: 1
读取模式     : 保护
使用精确流   : 是
废除音频缓冲 : 是
使用 C2 指针 : 否
读取偏移校正                   : 0
读取 Lead-In 和 Lead-Out       : 否
用静音填充抓取中丢失偏移的采样 : 是
去除首尾静音块                 : 否
在 CRC 计算中使用了空样本      : 否
已用接口                       : Win NT 及 2000 本地 Win32 接口
所用输出格式   : Monkey's Audio 无损编码器
已选比特率     : High Lossless Compression
质量           : 高
添加 ID3 标签  : 是
命令行压缩器   : C:\Program Files\Monkey's Audio\MAC.exe

被抓轨 CD 的 TOC
     音轨 |   开始   |   长度   | 起始扇区 | 结尾扇区
    --------------------------------------------------
       1  |  0:00.00 |  3:31.64 |       0  |   15888  
       2  |  3:31.64 |  3:36.16 |   15889  |   32104  
       3  |  7:08.05 |  4:09.45 |   32105  |   50824  
       4  | 11:17.50 |  3:30.66 |   50825  |   66640  
       5  | 14:48.41 |  3:43.03 |   66641  |   83368  
       6  | 18:31.44 |  3:35.11 |   83369  |   99504  
       7  | 22:06.55 |  4:11.71 |   99505  |  118400  
       8  | 26:18.51 |  3:36.16 |  118401  |  134616  
       9  | 29:54.67 |  4:01.05 |  134617  |  152696  
      10  | 33:55.72 |  4:02.25 |  152697  |  170871  

范围状态及错误
已选择范围
     文件名 D:\My Documents\詹雅雯《當店》\詹雅雯《當店》.wav
     峰值电平 100.0 %
     范围质量 99.9 %
     复制 CRC F2714BBF
     复制成功
没有错误发生
状态报告结尾
REM DISCID 7B08E60A
REM COMMENT "ExactAudioCopy v0.99pb5"
PERFORMER "詹雅雯"
TITLE "詹雅雯《當店》"
FILE "詹雅雯《當店》.ape" WAVE
  TRACK 01 AUDIO
    TITLE "當店"
    PERFORMER "詹雅雯"
    INDEX 01 00:00:00
  TRACK 02 AUDIO
    TITLE "一個人"
    PERFORMER "詹雅雯"
    INDEX 01 03:31:64
  TRACK 03 AUDIO
    TITLE "感情!我講會到做會到"
    PERFORMER "詹雅雯"
    INDEX 01 07:08:05
  TRACK 04 AUDIO
    TITLE "墓仔埔也敢來"
    PERFORMER "詹雅雯"
    INDEX 01 11:17:50
  TRACK 05 AUDIO
    TITLE "不免想我"
    PERFORMER "詹雅雯"
    INDEX 01 14:48:41
  TRACK 06 AUDIO
    TITLE "傷痕累累"
    PERFORMER "詹雅雯"
    INDEX 01 18:31:44
  TRACK 07 AUDIO
    TITLE "冷清淚"
    PERFORMER "詹雅雯"
    INDEX 01 22:06:55
  TRACK 08 AUDIO
    TITLE "幸福的名單"
    PERFORMER "詹雅雯"
    INDEX 01 26:18:51
  TRACK 09 AUDIO
    TITLE "半暝兩點"
    PERFORMER "詹雅雯"
    INDEX 01 29:54:67
  TRACK 10 AUDIO
    TITLE "思念追袂返來"
    PERFORMER "詹雅雯"
    INDEX 01 33:55:72

当店mm.rar (108 Bytes)

售價: 音樂幣 20 個  [記錄]  [購買]

欣赏了,谢谢分享詹雅雯《當店》
frahu

TOP

谢谢楼楼
支持闽南语歌曲!!

TOP

詹雅雯的歌声有特色
22222222222

TOP

good
小兄弟

TOP

謝謝分享
小兄弟

TOP

詹雅雯的歌声有特色

TOP

返回列表